#TITLE:Dizzy Fingers;
#SUBTITLE:;
#ARTIST:Diane;
#TITLETRANSLIT:;
#SUBTITLETRANSLIT:;
#ARTISTTRANSLIT:;
#CREDIT:;
#BANNER:;
#BACKGROUND:;
#LYRICSPATH:;
#CDTITLE:;
#MUSIC:dizzyfingers.mp3;
#OFFSET:0.075;
#SAMPLESTART:40.906;
#SAMPLELENGTH:12.000;
#SELECTABLE:YES;
#BPMS:0.000=278.500;
#STOPS:;
#BGCHANGES:;
// cache tags:
#FIRSTBEAT:3.500;
#LASTBEAT:886.000;
#SONGFILENAME:Songs/Music V.I.P ^_^/Dizzy Fingers/dizzyfingers.sm;
#HASMUSIC:1;
#HASBANNER:0;
#MUSICLENGTH:167.774;
// end cache tags

//---------------dance-single - HEAVY----------------
#NOTES:
     dance-single:
     HEAVY:
     Hard:
     10:
     1.000,1.000,1.000,0.095,0.069,1411.000,182.000,16.000,0.000,0.000:



0000
0000
0000
0000
0000
0000
0000
1000
,
0001
1000
0001
1000
0001
1000
0001
1000
,
0100
1000
0100
1000
0100
1000
0100
0010
,
0001
0010
0001
0010
0001
0010
0001
0100
,
0010
0100
0010
0100
0010
0100
0010
1000
,
0001
1000
0001
1000
0010
1000
0010
0100
,
0001
0100
0001
0100
1000
0100
1000
0100
,
0001
0100
0001
1000
0001
1000
0001
0010
,
0100
0010
0100
1000
0001
1000
0001
0110
,
0000
0011
0000
0110
0000
1100
0000
1010
,
0000
1001
0000
0001
0010
0100
1000
0001
,
0000
0220
0000
0000
0000
0330
0000
0110
,
0000
0000
0000
0000
0000
0000
0000
2002
,
0000
0000
0000
3003
0000
1001
0000
0000
,
0000
1001
0000
0011
0000
0110
0000
0000
,
0000
2200
0000
0000
0000
3300
0000
0011
,
0000
0000
0000
0000
0000
0000
0000
0202
,
0000
0000
0000
0303
0000
1010
0000
0000
,
1001
0000
0110
0000
1100
0000
0100
0010
,
1000
0100
0010
0001
0100
0010
0100
0001
,
0010
0100
1000
0010
0100
0001
0020
0000
,
1000
0100
1000
0001
,
0100
0000
0001
0000
0130
0000
0001
0010
,
0100
1000
0010
0100
0001
0010
0100
0010
,
0001
0100
0010
1000
0100
0010
0002
0000
,
0010
1000
0010
1000
,
0100
0000
1000
0000
0103
0000
0001
0010
,
0100
1000
0001
0100
0010
1000
0001
0000
,
1100
0000
0000
0000
1100
0000
1000
0100
,
0010
0001
1000
0010
0100
0001
1000
0000
,
0101
0000
0101
1001
,
0001
0010
0100
1000
0100
0010
0001
0010
,
0100
1000
0100
0010
0001
0010
0100
1000
,
0100
0010
0001
0010
0100
1000
0100
0010
,
0001
0010
0100
1000
0100
0010
0001
0010
,
0100
1000
0001
0010
0100
1000
0001
1000
,
0100
0010
0001
1000
0100
0010
0001
2000
,
0000
0001
0000
0010
0000
0100
0000
0001
,
0000
0100
0000
0010
0000
3001
0000
1000
,
0100
0010
0001
1000
0100
0010
0001
1000
,
0001
0010
0100
1000
0001
0010
0100
2000
,
0000
0100
0000
0010
0000
0100
0000
0001
,
0000
0100
0000
0001
0000
3010
0000
0001
,
0010
0001
1000
0100
1000
0001
0010
0001
,
0000
1100
0000
0000
0000
1100
0000
1000
,
0010
1000
0001
0100
0001
1000
0010
1000
,
0000
0101
0000
0000
0000
0101
0000
0110
,
0000
1000
0100
0010
0100
1000
0010
0100
,
0010
1000
0100
0010
0001
0100
0010
0100
,
0001
0010
0100
0010
0001
0100
0010
1001
,
0000
0000
0000
0110
0000
0000
0000
1001
,
0000
0001
0010
0001
0100
0010
0100
0001
,
1000
0001
1000
0100
1000
0010
0100
0010
,
0001
1000
0000
0001
0100
1000
0000
0001
,
0010
1000
0000
0001
0100
1000
0000
1001
,
0000
1000
0010
0100
0001
1000
0010
0100
,
0010
1000
0100
0010
0001
0100
1000
0010
,
1000
0100
0000
0010
0100
0010
0000
1000
,
0001
1000
0000
0100
0010
0100
0000
0110
,
0000
1100
0000
1010
0000
0011
0000
0101
,
0000
0110
0000
1001
0000
0011
0000
1001
,
0000
1100
0000
1001
0000
0110
0000
0011
,
0000
1100
0000
1010
0000
0101
0000
1001
,
0000
0011
0000
1001
0000
1100
0000
1001
,
0000
0110
0000
0011
0000
1010
0000
1100
,
0000
0101
0000
0011
0000
1100
0000
1010
,
0000
0101
0000
0110
0000
1001
0000
0110
,
0000
0000
0001
0010
0100
1000
0001
0010
,
0100
1000
0001
0010
0100
1000
0001
0010
,
0100
1000
0001
0000
1010
0100
0001
0000
,
0011
0100
1000
0000
1010
0100
0001
0000
,
0110
0000
1000
0010
0100
0001
1000
0010
,
0100
0001
1000
0010
0100
0001
1000
0010
,
0100
0001
1000
0000
1100
0010
0001
0000
,
0101
0010
1000
0000
1100
0010
0001
0000
,
1010
1001
0110
1001
,
0110
0011
1100
0011
,
1100
1010
0101
1010
,
0101
1001
0110
0011
,
1100
0110
0011
0101
,
0110
1010
0110
1001
,
0101
0110
1001
1100
,
1001
0011
1001
1010
,
1001
0110
1001
0110
,
0011
1100
0011
1100
,
1010
0101
1010
0101
,
1001
0110
0011
1100
,
1000
0100
0010
0001
0010
0100
1000
0100
,
1000
0010
0100
0001
0100
0010
1000
0010
,
0200
1000
0001
1000
,
0010
0001
0010
1300
,
0001
0010
0001
0100
1000
0100
1000
0010
,
1000
0100
0001
0100
0010
0100
0010
1000
,
0002
1000
0010
1000
,
0100
1000
0010
1003
,
0100
0010
1000
0001
0100
0010
1000
0001
,
0100
0011
0000
0011
,
0010
0100
0001
1000
0010
0100
0001
1000
,
0010
1100
0000
1100
,
1001
0000
0001
0100
0010
1000
0010
0100
,
0001
0100
0010
1000
0010
0100
0001
0100
,
0010
1000
0010
0100
0001
0100
0010
1000
,
0010
0100
0001
0100
0010
1000
0010
0100
,
0010
0100
0010
1000
0001
1000
0100
0010
,
0100
0001
0010
0001
1000
0100
1000
0001
,
0200
0010
0010
0010
,
1000
0001
1000
0301
,
1000
0010
1000
0001
0100
0001
0010
0100
,
0010
0100
1000
0100
0010
0001
0010
0100
,
0020
0100
0100
0100
,
0001
1000
0001
1030
,
1000
0100
0010
0001
1000
0001
0010
0100
,
1000
0110
0000
0110
,
0001
0100
1000
0010
0001
0100
1000
0010
,
0001
1010
0000
1010
,
0110
0000
0000
0010
0100
0001
0010
0100
,
1000
0010
0100
0001
0010
0100
1000
0010
,
0100
0001
0010
0100
1000
0010
0100
0001
,
0010
0100
0000
0000
0000
0110
0000
0000
,
0000
0000
0001
0010
0100
0001
1000
0100
,
0010
0001
0100
0010
0100
0001
1000
0100
,
0010
0100
1000
0010
0001
0100
0010
1000
,
0100
0010
0001
0000
1100
0000
1010
0000
,
0110
0000
0101
1000
0010
0001
1000
0100
,
0010
0001
1000
0100
0001
0010
0100
1000
,
0001
0010
1000
0100
0001
0100
1000
0001
,
0100
1000
0100
0000
1001
0000
0011
0000
,
1100
0000
0110
0000
1000
0001
0100
0010
,
0001
1000
0010
0100
0001
0010
0100
0010
,
0001
0100
0010
1000
0001
0100
0001
1000
,
0100
0001
1000
0001
0000
0110
0000
1001
,
0000
0000
0110
0000
0000
0000
1001
0000
0000
0000
0000
1000
0000
0100
0000
0010
,
0000
0001
0000
0100
0000
0010
0000
1000
0000
0100
0000
0010
0000
0100
0000
0010
,
0000
0001
0000
1000
0000
0100
0000
0010
0000
0001
0000
0010
0000
0001
0000
0100
,
0000
0010
0000
1000
0000
0100
0000
0010
0000
0000
0000
0000
0000
0000
0000
0000
,
1001
0000
0000
0000
0001
0100
0010
1000
,
0100
0010
0001
0100
0010
1000
0100
0010
,
0001
0100
0010
1000
0100
0010
0001
0100
,
0010
1000
0100
0010
0001
0000
0110
0000
,
0011
0000
0110
0000
1100
0000
0001
0010
,
0100
1000
0010
0100
0001
0010
0100
1000
,
0010
0100
0001
0010
0100
1000
0010
0100
,
0001
0010
0100
1000
0010
0100
0000
1001
,
0000
0101
0000
1001
0000
1010
0000
1000
,
0100
0001
0100
1000
0001
0100
1000
0100
,
0001
0100
1000
0001
0100
1000
0010
0001
,
0010
1000
0001
0010
1000
0010
0001
0000
,
0110
1001
0011
1100
,
0000
1000
0100
0010
0001
0010
0100
1000
,
0010
0100
0001
0100
0010
1000
0001
0100
,
0010
1000
0100
0010
0100
1000
0010
0100
,
0000
0000
0000
0011
0000
0000
0000
0000
,
0110
1001
0110
1001
,
0011
1100
0011
1100
,
1010
0101
1010
0101
,
0110
0011
1100
1001
,
1000
0100
0010
0001
1000
0100
0010
0001
,
0010
0100
1000
0001
0010
0100
1000
0001
,
1000
0100
0010
0001
1000
0100
0010
0001
,
0010
0100
1000
0001
0010
0100
1000
0001
,
1000
0100
0010
0001
1000
0100
0010
0001
,
0010
0100
1000
0001
0010
0100
1000
0001
,
1000
0100
0010
0001
1000
0100
0010
0001
,
0010
0100
1000
0001
0010
0100
1000
0001
,
0010
1000
0010
0100
0001
1000
0010
0100
,
0001
1000
0001
0010
0100
1000
0001
0010
,
0100
1000
0001
1000
0010
0100
0001
1000
,
0010
0100
0001
1000
0001
0010
0100
1000
,
0001
0010
0000
1001
0000
1000
0100
0010
,
0001
0010
0100
1000
0100
0010
0001
0100
,
0010
1000
0100
0010
0001
0100
0010
1000
,
0100
0010
0001
0100
0010
1000
0100
0010
,
0001
0100
0010
1000
0100
0001
0010
0100
,
1000
0001
0100
0010
1000
0100
1000
0010
,
0100
0001
0010
0100
0001
0100
0010
0001
,
0010
0100
1000
0010
0100
0010
1000
0001
,
0100
0010
0100
0001
1000
0100
0010
0001
,
0100
0010
0100
0001
0010
0100
1000
0100
,
0001
0100
1000
0010
0100
0001
0010
0100
,
0001
1000
0100
0010
0001
1000
0001
0100
,
0010
0001
0010
0100
0010
0100
1000
0001
,
1000
0001
0010
0100
0010
0100
1000
0010
,
1000
0010
0100
0001
0100
0001
0010
0001
,
0010
0001
1000
0100
1000
0100
0010
0100
,
0010
0100
1000
0001
1000
0001
0000
1001
,
0000
0001
0010
0100
0010
0001
1000
0100
,
0010
0100
1000
0001
0010
0100
0010
0001
,
1000
0100
0010
0100
0001
0100
1000
0010
,
0000
0000
1001
1001
,
1000
0100
0010
0001
1000
0100
0010
0001
,
0010
0100
1000
0001
0010
0100
1000
0001
,
1000
0100
0010
0001
1000
0100
0010
0001
,
0010
0100
1000
0001
0010
0100
1000
0001
,
1000
0100
0010
0001
1000
0100
0010
0001
,
0010
0100
1000
0001
0010
0100
1000
0001
,
1000
0100
0010
0001
1000
0100
0010
0001
,
0010
0100
1000
0001
0010
0100
1000
0001
,
0010
1000
0010
0100
0001
1000
0010
0100
,
0001
1000
0001
0010
0100
1000
0001
0010
,
0100
1000
0001
1000
0010
0100
0001
1000
,
0010
0100
0001
1000
0001
0010
0100
1000
,
0001
0010
0000
1001
0000
1000
0100
0010
,
0001
0010
0100
1000
0100
0010
0001
0100
,
0010
1000
0100
0010
0001
0100
0010
1000
,
0100
0010
0001
0100
0010
1000
0100
0010
,
0001
0100
0010
1000
0100
0001
0010
0100
,
1000
0001
0100
0010
1000
0100
1000
0010
,
0100
0001
0010
0100
0001
0100
0010
0001
,
0010
0100
1000
0010
0100
0010
1000
0001
,
0100
0010
0100
0001
1000
0100
0010
0001
,
0100
0010
0100
0001
0010
0100
1000
0100
,
0001
0100
1000
0010
0100
0001
0010
0100
,
0001
1000
0100
0010
0001
1000
0001
0100
,
0010
0001
0010
0100
0010
0100
1000
0001
,
1000
0001
0010
0100
0010
0100
1000
0010
,
1000
0010
0100
0001
0100
0001
0010
0001
,
0010
0001
1000
0100
1000
0100
0010
0100
,
0010
0100
1000
0001
1000
0001
0000
1001
,
0000
0001
0010
0100
0010
0001
1000
0100
,
0010
0100
1000
0001
0010
0100
0010
0001
,
1000
0100
0010
0100
0001
0100
1000
0010
,
0000
0000
1001
0000;
